<< x264HD BBC Earth Yellowstone 2/3 - Zomer - 1080px264.NLsubs
BBC Earth Yellowstone 2/3 - Zomer - 1080px264.NLsubs

Visit UsenetBucket!!

Category Image
Formatx264
SourceRetail
LanguageDutch subtitles (external)
LanguageEnglish audio/written
GenreDocumentary
TypeMovie
Date 4 years, 3 months
Size 7.01 GB
Spotted with Spotnet 2.0.0.147
 
Website http://nzbindex.nl/search/?q=BBC+Earth+Yellowstone+2%2F3+-+Zomer+-+1080px264.NLsubs
 
Trailer
 
Sender AdSlager (H6jUsQ)
Tag
 
Searchengine Search
Download NZB
 
Number of spamreports


Checkout RevivalRo!!






Post Description

BBC Earth Yellowstone 2/3 - Zomer - 1080px264.NLsubs
Deze epische BBC natuurreeks volgt het dramatische leven van de flora en fauna in Yellowstone National Park gedurende drie seizoenen:01 - De Winter02 - De Zomer03 - De herfstYellowstone National Park, één van de oudste en grootste natuurreservaten ter wereld. Een 9000 km² grote wereld van uitgestrekte vlaktes, groene weides en eindeloze bossen, aan alle kanten ingesloten door torenhoge bergen. Het is ook een van de meest thermische gebieden op aarde, met meer dan 10.000 warmwaterbronnen en fumarolen en meer geisers dan elders op aarde.Tussen deze wonderen van de natuur leeft een keur aan dierlijk leven, zoals de laatste Amerikaanse bizonkudde, de grizzlybeer en de grijze wolf.Deze baanbrekende serie toont niet alleen de grandeur van Yellowstone, maar ook hoe deze dieren er overleven gedurende de spectaculaire seizoenen. De dagelijkse overlevingsstrijd van de wilde dieren is echter niks vergeleken met het gevaar dat vlak onder de sneeuw in Yellowstone schuilgaat: De grootste vulkaan ter wereld.File.NfoFormat : MatroskaFile size : 6.46 GiBDuration : 59mn 8sWriting application : mkvmerge v3.3.0Writing library : libebml v0.8.0 + libmatroska v0.9.0Video: Writing library : x264 coreFormat : AVCFormat profile : [email protected] settings, CABAC : YesFormat settings, ReFrames : 3 framesCodec ID : V_MPEG4/ISO/AVCNominal bit rate : 13.5 MbpsWidth : 1 920 pixelsHeight : 1 080 pixelsDisplay aspect ratio : 16:9Frame rate : 24.000 fpsResolution : 24 bitsColorimetry : 4:2:0Scan type : ProgressiveBits/(Pixel*Frame) : 0.265Stream size : 5.44 GiB (84%)AudioFormat : AC-3Bit rate : 640 KbpsChannel(s) : 6 channelsChannel positions : Front: L C R, Surround: L R, LFESampling rate : 48.0 KHzStream size : 271 MiB (4%)Title : Engels DD5.1Language : EnglishAudioFormat : DTSBit rate : 1 510 KbpsChannel(s) : 6 channelsChannel positions : Front: L C R, Surround: L R, LFESampling rate : 48.0 KHzResolution : 16 bitsStream size : 639 MiB (10%)Title : Engels DTSLanguage : EnglishBBC Earth Yellowstone 2/3 - 1080px264.NLsubs
http://topp0rtal.com/uploads/2010-03/4a62f1ea4f97_llowstone-239359.jpg
http://www.youtube.com/watch?v=-aUVzd3EAA0


Comments # 0