<< x264HD BBC Earth Yellowstone 3/3 - De Herfst - 1080px264.NLsubs
BBC Earth Yellowstone 3/3 - De Herfst - 1080px264.NLsubs

Visit UsenetBucket!!

Category Image
Formatx264
SourceRetail
LanguageDutch subtitles (external)
LanguageEnglish audio/written
GenreDocumentary
TypeMovie
Date 4 years, 3 months
Size 7.05 GB
Spotted with Spotnet 2.0.0.147
 
Website http://nzbindex.nl/search/?q=BBC+Earth+Yellowstone+3%2F3+-+De+Herfst+-+1080px264.NLsubs
 
 
Sender AdSlager (H6jUsQ)
Tag
 
Searchengine Search
Download NZB
 
Number of spamreports


Checkout RevivalRo!!






Post Description

BBC Earth Yellowstone 3/3 - De Herfst - 1080px264.NLsubs

Deze epische BBC natuurreeks volgt het dramatische leven van de flora en fauna in Yellowstone National Park gedurende drie seizoenen:01 - De Winter02 - De Zomer03 - De Herfst
Yellowstone National Park, één van de oudste en grootste natuurreservaten ter wereld.
Een 9000 km² grote wereld van uitgestrekte vlaktes, groene weides en eindeloze bossen, aan alle kanten ingesloten door torenhoge bergen.
Het is ook een van de meest thermische gebieden op aarde, met meer dan 10.000 warmwaterbronnen en fumarolen en meer geisers dan elders op aarde.
Tussen deze wonderen van de natuur leeft een keur aan dierlijk leven, zoals de laatste Amerikaanse bizonkudde, de grizzlybeer en de grijze wolf.
Deze baanbrekende serie toont niet alleen de grandeur van Yellowstone, maar ook hoe deze dieren er overleven gedurende de spectaculaire seizoenen.
De dagelijkse overlevingsstrijd van de wilde dieren is echter niks vergeleken met het gevaar dat vlak onder de sneeuw in Yellowstone schuilgaat:
De grootste vulkaan ter wereld.

File.Nfo
Format : Matroska
File size : 6.45 GiB
Duration : 59mn 2s
Writing application : mkvmerge v3.3.0
Writing library : libebml v0.8.0 + libmatroska v0.9.0
Video: Writing library : x264 core
Format : AVC
Format profile : [email protected]
Format settings, CABAC : Yes
Format settings, Re
Frames : 3 frames
Codec ID : V_MPEG4/ISO/AVC
Nominal bit rate : 13.5 Mbps
Width : 1 920 pixelsHeight : 1 080 pixels
Display aspect ratio : 16:9
Frame rate : 24.000 fps
Resolution : 24 bits
Colorimetry : 4:2:0
Scan type : Progressive
Bits/(Pixel*Frame) : 0.265
Stream size : 5.44 GiB (84%)
AudioFormat : AC-3Bit rate : 640 Kbps
Channel(s) : 6 channels
Channel positions : Front: L C R, Surround: L R, LFE
Sampling rate : 48.0 KHz
Stream size : 270 MiB (4%)
Title : Engels DD5.1
Language : English
AudioFormat : DTS
Bit rate : 1 510 Kbps
Channel(s) : 6 channels
Channel positions : Front: L C R, Surround: L R, LFE
Sampling rate : 48.0 KHz
Resolution : 16 bits
Stream size : 638 MiB (10%)
Title : Engels DTS
Language : English

BBC Earth Yellowstone 3/3 - 1080px264.NLsubs


Comments # 0