<< x264HD BBC South Pacific Deel.1/6 - 1080Px264.MKV NLsubs.
BBC South Pacific Deel.1/6 - 1080Px264.MKV NLsubs.

Visit UsenetBucket!!

Category Image
Formatx264
SourceRetail
LanguageDutch subtitles (available)
LanguageEnglish audio/written
GenreDocumentary
TypeMovie
Date 4 years, 2 months
Size 8.79 GB
Spotted with Spotnet 2.0.0.150
 
Website http://nzbindex.nl/search/?q=BBC+South+Pacific+Deel.1%2F6+-+1080Px264.MKV+NLsubs.
 
 
Sender AdSlager (H6jUsQ)
Tag
 
Searchengine Search
Download NZB
 
Number of spamreports


Checkout RevivalRo!!






Post Description

BBC South Pacific Deel.1/6 - 1080Px264.MKV

01 - Ocean of Islands.

In zes afleveringen maken we kennis met dit enorme wateroppervlak in het zuiden van de Stille Oceaan en met zijn duizenden eilanden en hun unieke fauna en flora.
Van het BBC-team dat eerder Planet Earth produceerde, komt nu een nieuwe verbluffende natuurserie: South Pacific.
De ongelofelijke flora en fauna en geschiedenis van deze immense, fascinerende oceaan en zijn 20.000 eilanden worden in deze reeks onthuld.
Met zijn koraalriffen, turquoise lagunes en enorme atols lijkt de pacifische oceaan op een paradijs.
Maar van de kust van Hawaii tot aan Paaseiland en de duizenden piepkleine eilandjes daartussen bevat deze oceaan enkele van de meest bizarre en fascinerende verrassingen op aarde…
Met behulp van adembenemend camerawerk brengt deze serie de natuur van de regio in beeld: van uitbarstingen van onderwatervulkanen tot tijgerhaaien die jonge albatrossen vangen en gigantische krabben die kokosnoten openbreken!
De reeks laat ook zien hoe op de afgelegen eilanden bizarre dieren konden ontstaan en hoe de vroege mens enkele van deze eilanden wist te bereiken en er kon overleven

01 - Ocean of Islands - Oceaan vol Eilanden
02 - Castaways - Drenkelingen
03 - Endless Blue - Het Oneindige Blauw
04 - Ocean of Volcanoes - Oceaan vol Vulkanen
05 - Strange Islands - Bizarre Eilanden
06 - Fragile Paradise - Kwetsbaar Paradijs

Bron: BluRayFormaat: MKV 1080px264
Audio: Eng DD.5.1 448 Kbps
Audio: Eng DTS 1.5 Mbps
Subs: Nederlands
Bewerking: KojakFile.Nfo:Format : MatroskaFile size : 7.99 GiB
Duration : 52mn 3s
Writing application : mkvmerge v3.3.0
Writing library : libebml v0.8.0 + libmatroska v0.9.0
Video: Writing library : x264 core
Format : AVC
Format profile : [email protected]
Format settings, CABAC : Yes
Format settings, Re
Frames : 3 frames
Codec ID : V_MPEG4/ISO/AVC
Nominal bit rate : 20.1 Mbps
Width : 1 920 pixelsHeight : 1 080 pixels
Display aspect ratio : 16:9
Frame rate : 24.000 fps
Resolution : 24 bits
Colorimetry : 4:2:0Scan type : Progressive
Bits/(Pixel*Frame) : 0.393
Stream size : 7.12 GiB (89%)Audio
Format : AC-3Bit rate : 448 KbpsChannel(s) : 6 channels
Channel positions : Front: L C R, Surround: L R, LFESampling rate : 48.0 KHz
Stream size : 167 MiB (2%)Title : Engels DD5.1
Language : English
AudioFormat : DTSBit rate : 1 510 Kbps
Channel(s) : 6 channelsChannel positions : Front: L C R, Surround: L R, LFE
Sampling rate : 48.0 KHz
Resolution : 16 bits
Stream size : 562 MiB (7%)
Title : Engels DTS
Language : English


Comments # 0